#TITLE:Here We Go;
#SUBTITLE:;
#ARTIST:Renard V;
#TITLETRANSLIT:;
#SUBTITLETRANSLIT:;
#ARTISTTRANSLIT:;
#CREDIT:_.Spitfire._;
#BANNER:Here we Go bn.PNG;
#BACKGROUND:Here we Go bg.PNG;
#LYRICSPATH:;
#CDTITLE:!cdtitle_spitfire.png;
#MUSIC:1204012277.renardv_here_we_go.mp3;
#OFFSET:0.250;
#SAMPLESTART:8.589;
#SAMPLELENGTH:12.000;
#SELECTABLE:YES;
#BPMS:0.000=881.916,8.000=440.958,40.000=881.916,48.000=440.958,64.000=1763.842,128.000=440.962,156.000=881.925,164.000=440.962,186.000=1763.842,218.000=440.963,248.000=881.925,256.000=440.963,284.000=881.925,292.000=440.963,356.000=881.925,364.000=1763.840,372.000=881.925,392.000=440.963,420.000=881.925,428.000=440.963,450.000=1763.840,512.000=440.961;
#STOPS:;
#BGCHANGES:;
// cache tags:
#FIRSTBEAT:4.000;
#LASTBEAT:512.000;
#SONGFILENAME:Songs/Music V.I.P ^_^/Here We Go (_.Spitfire._)/1204012277.renardv_here_we_go.sm;
#HASMUSIC:1;
#HASBANNER:1;
#MUSICLENGTH:48.770;
// end cache tags

//---------------dance-single - ----------------
#NOTES:
     dance-single:
     :
     Medium:
     13:
     1.000,1.000,1.000,0.000,0.000,409.000,244.000,0.000,0.000,0.000:
0000
0000
0000
0000
,
0100
0000
0000
0000
0000
0000
0000
0001
,
0000
0010
0000
0000
,
1001
1001
0101
0101
,
1010
0000
1010
0000
1100
0000
1100
0001
,
1010
1010
0101
0101
,
0110
0000
0110
0000
0011
0100
0011
0100
,
1001
1001
1010
1010
,
1001
0000
1001
0000
0110
0000
0110
1000
,
0011
0011
1001
1001
,
1000
0100
0010
0001
1000
0000
0000
0000
,
0001
0010
0100
1000
0001
0000
0000
0000
,
1100
1100
0101
0101
,
0110
0000
0110
0000
0011
0000
0011
0100
,
1001
1001
1100
1100
,
1010
0000
1010
0000
0110
0001
0110
1000
,
0011
0000
0000
0000
,
0000
0000
0000
1000
,
0000
0000
0000
0000
,
0000
0001
0000
0000
,
0000
0000
0000
0000
,
0000
0000
0100
0000
,
0000
0000
0000
0000
,
0000
0000
0000
0000
,
1100
0000
0000
0000
,
0000
0000
1100
0000
,
0000
0000
0000
0000
,
0010
0000
0001
0000
,
0011
1100
0011
1100
,
0011
1100
0011
1100
,
0011
0000
0000
0000
,
0000
0000
0000
0000
,
0101
0101
1001
1001
,
1100
0000
1100
0000
1010
0000
1010
0100
,
1001
1001
0011
0011
,
0110
0000
0110
0000
0101
1000
0101
0010
,
1001
1001
1100
1100
,
0101
0000
0101
0000
0110
0000
0110
0001
,
1100
1100
1001
1001
,
0001
0010
0100
1000
0001
0000
0000
0000
,
1000
0100
0010
0001
1000
0000
0000
0000
,
0110
0110
0011
0011
,
1001
0000
1001
0000
1100
0000
1100
0001
,
0110
0110
1001
1001
,
0101
0000
0101
0000
1010
0001
1010
0100
,
1001
0000
0000
0000
,
0000
0000
0000
0000
,
0000
0000
0000
0000
,
0000
0000
0100
0000
,
1000
0000
0000
0000
0001
0010
0100
1000
,
0001
0000
0000
0000
1000
0100
0010
0001
,
1000
0000
0000
0000
0001
0010
0100
1000
,
0001
0010
0100
1000
0001
0000
0000
0000
,
0010
0000
0000
0000
1000
0100
0010
0001
,
1000
0000
1001
0000
,
1100
0000
0011
0000
1010
0100
1001
0010
,
1100
0000
0110
0000
0101
0000
0011
0011
,
1100
0011
1100
0011
,
1100
0000
1010
0000
0110
1001
0110
0001
,
1100
1100
1100
0101
,
0101
0010
1100
0010
1001
0000
0011
1000
,
0110
0000
1001
0100
0011
0000
1010
0000
,
1000
0010
0100
0001
1000
0000
0000
0000
,
0001
0100
0010
1000
0001
0000
0000
0000
,
1100
0000
0011
0000
1010
0100
1001
0010
,
1100
0000
0110
0000
0101
0000
0011
0011
,
1100
0011
1100
0011
,
1100
0000
1010
0000
0110
1001
0110
0001
,
1100
1100
1100
0101
,
0101
0010
1100
0010
1001
0000
0011
1000
,
0110
1000
0010
0100
,
0001
0001
0000
0000
,
0000
0100
0000
0100
0000
0000
0000
0000
,
1001
0000
0000
0100
,
0011
0000
0010
0000
,
0000
0010
0000
0000
,
0100
0000
0000
0000
,
0011
0000
0011
0000
,
0011
0011
0011
1010
,
0000
1010
0000
1001
,
1010
0000
1100
0000
,
1001
0000
0000
0100
,
0011
0000
0010
0000
,
0000
0010
0000
0000
,
0100
0000
0000
0000
,
0011
0000
0011
0000
,
0011
0011
0011
1010
,
0000
1010
0000
1001
,
1010
0000
1100
0000
,
1001
0000
0010
0000
,
0100
0000
0010
0000
,
1000
0000
0000
0001
,
0000
0000
0000
0000
0000
0100
0000
0000
,
0000
0010
0000
0000
,
1001
0100
0001
0100
,
0001
0010
0100
1000
0001
0000
0010
0000
,
1000
0100
0010
0001
1000
0000
0100
0000
,
0011
0000
0000
0000
,
1001
1001
1001
1001
,
1100
0000
1100
0000
1100
0000
1100
0011
,
0101
0101
0101
0101
,
0110
0000
0110
0000
0110
1001
0110
1100
,
0011
0011
0011
0011
,
1001
0000
1001
0000
1001
0000
1001
0101
,
1010
1010
1010
1010
,
0011
0100
1000
0100
0011
0000
0000
0000
,
0011
0100
1000
0100
0011
0000
0000
0000
,
1001
0110
0110
0110
,
1100
0000
1100
0000
1100
0000
1100
0110
,
1001
1001
1001
1001
,
0101
0000
0101
0000
0101
1010
0101
0110
,
1001
0000
0000
0000
,
0000
0000
0000
0000
,
0000
0000
0000
0000
,
0000
0000
0100
0000
,
1000
0000
0000
0000
0001
0010
0100
1000
,
0001
0000
0000
0000
1000
0100
0010
0001
,
1000
0000
0000
0000
0001
0010
0100
1000
,
0001
0010
0100
1000
0001
0000
0000
0000
,
0010
0000
0000
0000
1000
0100
0010
0001
,
1000
0000
1001
0000
,
0000
0000
0000
0000
,
0000
0000
0110
0000
,
0000
0000
0000
0000
,
0000
1000
0000
0000
,
0000
0000
0000
0001
,
0000
0000
0000
0000
,
0000
0000
0000
0000
,
0100
0000
0000
0000
;

//---------------dance-single - ----------------
#NOTES:
     dance-single:
     :
     Hard:
     14:
     1.000,1.000,1.000,0.000,0.000,448.000,279.000,0.000,0.000,0.000:
0000
0000
0000
0000
,
0100
0000
0000
0000
0000
0000
0000
0001
,
0000
0010
0000
0000
,
1001
0000
1001
0010
0101
0000
0101
0000
,
1010
0100
1010
0000
1100
0000
1100
0101
,
1010
0000
1010
0010
0101
0000
0101
0000
,
0110
1000
0110
1000
0011
1100
0011
0110
,
1001
0000
1001
0100
1010
0000
1010
0000
,
1001
0010
1001
0000
0110
0000
0110
1100
,
0011
0000
0011
0100
1001
0000
1001
0000
,
1001
0100
0010
0001
1100
0000
0000
0000
,
1001
0010
0100
1000
0011
0000
0000
0000
,
1100
0000
1100
0010
0101
0000
0101
0000
,
0110
0001
0110
0000
0011
0000
0011
1100
,
1001
0000
1001
0010
1100
0000
1100
0000
,
1010
0100
1010
0001
0110
1001
0110
1100
,
0011
0000
0000
0000
,
0000
0000
0000
1000
,
0000
0000
0000
0000
,
0000
0001
0000
0000
,
0000
0000
0000
0000
,
0000
0000
0100
0000
,
0000
0000
0000
0000
,
0000
0000
0000
0000
,
1100
0000
0000
0000
,
0000
0000
1100
0000
,
0000
0000
0000
0000
,
0010
0000
0001
0000
,
0011
1100
0011
1100
,
0011
1100
0011
1100
,
0011
0000
0000
0000
,
0000
0000
0000
0000
,
0101
0000
0101
0010
1001
0000
1001
0000
,
1100
0010
1100
0000
1010
0000
1010
0110
,
1001
0000
1001
0100
0011
0000
0011
0000
,
0110
1000
0110
1000
0101
1010
0101
0110
,
1001
0000
1001
0010
1100
0000
1100
0000
,
0101
0010
0101
0000
0110
0000
0110
0011
,
1100
0000
1100
0010
1001
0000
1001
0000
,
1001
0010
0100
1000
0011
0000
0000
0000
,
1001
0100
0010
0001
1100
0000
0000
0000
,
0110
0000
0110
1000
0011
0000
0011
0000
,
1001
0100
1001
0000
1100
0000
1100
1001
,
0110
0000
0110
0010
1001
0000
1001
0000
,
0101
0010
0101
0100
1010
0101
1010
0110
,
1001
0000
0000
0000
,
0000
0000
0000
0000
,
0000
0000
0000
0000
,
0000
0000
0100
0000
,
1000
0000
0000
0000
0001
0010
0100
1000
,
0001
0000
0000
0000
1000
0100
0010
0001
,
1000
0000
0000
0000
0001
0010
0100
1000
,
0001
0010
0100
1000
0001
0000
0000
0000
,
0010
0000
0000
0000
1000
0100
0010
0001
,
1000
0000
1001
0000
,
1100
0000
0011
0000
1010
0100
1001
0010
,
1100
0000
0110
0000
0101
0000
0011
0011
,
1100
0011
1100
0011
,
1100
0000
1010
0000
0110
1001
0110
0011
,
1100
1100
1100
0101
,
0101
0010
1100
0010
1001
0000
0011
1001
,
0110
0000
1001
0100
0011
0000
1010
0000
,
1001
0010
0100
0001
1010
0000
0000
0000
,
1001
0100
0010
1000
0101
0000
0000
0000
,
1100
0000
0011
0000
1010
0100
1001
0010
,
1100
0000
0110
0000
0101
0000
0011
0011
,
1100
0011
1100
0011
,
1100
0000
1010
0000
0110
1001
0110
0011
,
1100
1100
1100
0101
,
0101
0010
1100
0010
1001
0000
0011
1001
,
0110
1000
0010
0100
,
0001
0001
0000
0000
,
0000
0100
0000
0100
0000
0000
0000
0000
,
1001
0000
0000
0100
,
0011
0000
0010
0000
,
0000
0010
0000
0000
,
0100
0000
0000
0000
,
0011
0000
0011
0000
,
0011
0011
0011
1010
,
0000
1010
0000
1001
,
1010
0000
1100
0000
,
1001
0000
0000
0100
,
0011
0000
0010
0000
,
0000
0010
0000
0000
,
0100
0000
0000
0000
,
0011
0000
0011
0000
,
0011
0011
0011
1010
,
0000
1010
0000
1001
,
1010
0000
1100
0000
,
1001
0000
0010
0000
,
0100
0000
0010
0000
,
1000
0000
0000
0001
,
0000
0000
0000
0000
0000
0100
0000
0000
,
0000
0010
0000
0000
,
1001
0010
1001
0100
,
1001
0010
0100
1000
0011
0000
0100
0000
,
1001
0100
0010
0001
1100
0000
0010
0000
,
0101
0000
0000
0000
,
1001
0000
1001
0010
1001
0000
1001
0000
,
1100
0010
1100
0000
1100
0000
1100
0011
,
0101
0000
0101
1000
0101
0000
0101
0000
,
0110
0001
0110
1000
0110
1001
0110
1100
,
0011
0000
0011
0100
0011
0000
0011
0000
,
1001
0100
1001
0000
1001
0000
1001
0101
,
1010
0000
1010
0001
1010
0000
1010
0000
,
0011
0100
1000
0100
0011
0000
0000
0000
,
0011
0100
1000
0100
0011
0000
0000
0000
,
1001
0000
0110
0001
0110
0000
0110
0000
,
1100
0010
1100
0000
1100
0000
1100
0110
,
1001
0000
1001
0010
1001
0000
1001
0000
,
0101
0010
0101
1000
0101
1010
0101
0110
,
1001
0000
0000
0000
,
0000
0000
0000
0000
,
0000
0000
0000
0000
,
0000
0000
0100
0000
,
1000
0000
0000
0000
0001
0010
0100
1000
,
0001
0000
0000
0000
1000
0100
0010
0001
,
1000
0000
0000
0000
0001
0010
0100
1000
,
0001
0010
0100
1000
0001
0000
0000
0000
,
0010
0000
0000
0000
1000
0100
0010
0001
,
1000
0000
1001
0000
,
0000
0000
0000
0000
,
0000
0000
0110
0000
,
0000
0000
0000
0000
,
0000
1000
0000
0000
,
0000
0000
0000
0001
,
0000
0000
0000
0000
,
0000
0000
0000
0000
,
0100
0000
0000
0000
;

//---------------dance-single - ----------------
#NOTES:
     dance-single:
     :
     Challenge:
     17:
     1.000,1.000,1.000,0.000,0.000,526.000,318.000,0.000,0.000,0.000:
0000
0000
0000
0000
,
0100
0000
0000
0000
0000
0000
0000
0001
,
0000
0010
0000
0000
,
1001
0100
1001
1010
0101
0010
0101
0001
,
1010
0101
1010
0001
1100
0010
1100
0101
,
1010
0001
1010
0110
0101
0010
0101
1000
,
0110
1001
0110
1010
0011
1100
0011
0110
,
1001
0010
1001
0101
1010
0001
1010
0100
,
1001
0110
1001
0001
0110
1000
0110
1100
,
0011
1000
0011
0110
1001
0100
1001
0010
,
1001
0100
0010
0001
1100
0000
0010
0000
,
1001
0010
0100
1000
0011
0000
0001
0000
,
1100
0001
1100
1010
0101
0010
0101
1000
,
0110
1001
0110
1000
0011
0100
0011
1100
,
1001
0010
1001
0011
1100
0010
1100
0001
,
1010
0101
1010
1001
0110
1001
0110
1100
,
0011
0000
0000
0000
,
0000
0000
0000
1000
,
0000
0000
0000
0000
,
0000
0001
0000
0000
,
0000
0000
0000
0000
,
0000
0000
0100
0000
,
0000
0000
0000
0000
,
0000
0000
0000
0000
,
1100
0000
0000
0000
,
0000
0000
1100
0000
,
0000
0000
0000
0000
,
0010
0000
0001
0000
,
0011
1100
0011
1100
,
0011
1100
0011
1100
,
0011
0000
0000
0000
,
0000
0000
0000
0000
,
0101
1000
0101
0110
1001
0100
1001
0010
,
1100
0011
1100
0001
1010
0100
1010
0110
,
1001
0010
1001
1100
0011
0100
0011
1000
,
0110
1001
0110
1010
0101
1010
0101
0110
,
1001
0100
1001
0011
1100
0001
1100
0010
,
0101
1010
0101
1000
0110
0001
0110
0011
,
1100
0001
1100
0110
1001
0010
1001
0100
,
1001
0010
0100
1000
0011
0000
0100
0000
,
1001
0100
0010
0001
1100
0000
0001
0000
,
0110
0001
0110
1100
0011
1000
0011
0100
,
1001
0110
1001
0010
1100
0010
1100
1001
,
0110
0001
0110
1010
1001
0100
1001
0010
,
0101
1010
0101
0101
1010
0101
1010
0110
,
1001
0000
0000
0000
,
0000
0000
0000
0000
,
0000
0000
0000
0000
,
0000
0000
0100
0000
,
1000
0000
0000
0000
0001
0010
0100
1000
,
0001
0000
0000
0000
1000
0100
0010
0001
,
1000
0000
0000
0000
0001
0010
0100
1000
,
0001
0010
0100
1000
0001
0000
0000
0000
,
0010
0000
0000
0000
1000
0100
0010
0001
,
1000
0000
1001
0000
,
1100
0000
0011
0000
1010
0100
1001
0010
,
1100
0000
0110
0000
0101
0000
0011
0011
,
1100
0011
1100
0011
,
1100
0000
1010
0000
0110
1001
0110
0011
,
1100
1100
1100
0101
,
0101
0010
1100
0010
1001
0000
0011
1001
,
0110
0000
1001
0100
0011
0000
1010
0000
,
1001
0010
0100
0001
1010
0000
0000
0000
,
1001
0100
0010
1000
0101
0000
0000
0000
,
1100
0000
0011
0000
1010
0100
1001
0010
,
1100
0000
0110
0000
0101
0000
0011
0011
,
1100
0011
1100
0011
,
1100
0000
1010
0000
0110
1001
0110
0011
,
1100
1100
1100
0101
,
0101
0010
1100
0010
1001
0000
0011
1001
,
0110
1000
0010
0100
,
0001
0001
0000
0000
,
0000
0100
0000
0100
0000
0000
0000
0000
,
1001
0000
0000
0100
,
0011
0000
0010
0000
,
0000
0010
0000
0000
,
0100
0000
0000
0000
,
0011
0000
0011
0000
,
0011
0011
0011
1010
,
0000
1010
0000
1001
,
1010
0000
1100
0000
,
1001
0000
0000
0100
,
0011
0000
0010
0000
,
0000
0010
0000
0000
,
0100
0000
0000
0000
,
0011
0000
0011
0000
,
0011
0011
0011
1010
,
0000
1010
0000
1001
,
1010
0000
1100
0000
,
1001
0000
0010
0000
,
0100
0000
0010
0000
,
1000
0000
0000
0001
,
0000
0000
0000
0000
0000
0100
0000
0000
,
0000
0010
0000
0000
,
1001
0010
1001
0100
,
1001
0010
0100
1000
0011
0000
0100
0000
,
1001
0100
0010
0001
1100
0000
0010
0000
,
0101
0000
0000
0000
,
1001
0010
1001
0110
1001
0100
1001
0010
,
1100
0011
1100
0001
1100
0010
1100
0011
,
0101
1000
0101
1010
0101
0010
0101
1000
,
0110
0101
0110
1001
0110
1001
0110
1100
,
0011
0100
0011
1100
0011
1000
0011
0100
,
1001
0110
1001
0100
1001
0010
1001
0101
,
1010
0001
1010
0101
1010
0001
1010
0100
,
0011
0100
1000
0100
0011
0000
1000
0000
,
0011
0100
1000
0100
0011
0000
0100
0000
,
1001
0001
0110
1001
0110
1000
0110
0001
,
1100
0011
1100
0010
1100
0001
1100
0110
,
1001
0010
1001
0110
1001
0100
1001
0010
,
0101
0011
0101
1010
0101
1010
0101
0110
,
1001
0000
0000
0000
,
0000
0000
0000
0000
,
0000
0000
0000
0000
,
0000
0000
0100
0000
,
1000
0000
0000
0000
0001
0010
0100
1000
,
0001
0000
0000
0000
1000
0100
0010
0001
,
1000
0000
0000
0000
0001
0010
0100
1000
,
0001
0010
0100
1000
0001
0000
0000
0000
,
0010
0000
0000
0000
1000
0100
0010
0001
,
1000
0000
1001
0000
,
0000
0000
0000
0000
,
0000
0000
0110
0000
,
0000
0000
0000
0000
,
0000
1000
0000
0000
,
0000
0000
0000
0001
,
0000
0000
0000
0000
,
0000
0000
0000
0000
,
0100
0000
0000
0000
;
